#TITLE:Explosive Part III;
#SUBTITLE:Fuego;
#ARTIST:bond Rearranged by M.I.R.O.K.U.;
#TITLETRANSLIT:;
#SUBTITLETRANSLIT:;
#ARTISTTRANSLIT:;
#CREDIT:JDZer0ski11z;
#BANNER:Explosive Part III Banner.JPG;
#BACKGROUND:ExplosivE Background.JPG;
#LYRICSPATH:;
#CDTITLE:cdtitle.PNG;
#MUSIC:Explosive Part III - Fuego.mp3;
#OFFSET:1.000;
#SAMPLESTART:73.800;
#SAMPLELENGTH:12.000;
#SELECTABLE:YES;
#BPMS:0.000=114.870,12.250=275.000,16.000=59.000,16.125=292.020,16.500=59.000,16.625=292.020,17.000=146.000,35.000=365.000,40.000=131.960,67.000=65.480,67.125=65.440,67.250=230.000,68.000=131.980,167.000=68.000,167.375=230.000,168.000=131.980,240.875=50.000,241.000=195.000,241.500=131.980,242.000=500.000,242.250=131.980,312.000=262.196,344.000=65.990,352.000=131.980,360.000=263.960,376.000=131.980;
#STOPS:;
#BGCHANGES:16.000=ExplosivE II Background.JPG=1.000=0=0=1,
99999=-nosongbg-=1.000=0=0=0 // don't automatically add -songbackground-
;
// cache tags:
#FIRSTBEAT:3.000;
#LASTBEAT:443.000;
#SONGFILENAME:Songs/Music V.I.P ^_^/Explosive Part III - Fuego/Explosive Part III - Fuego.sm;
#HASMUSIC:1;
#HASBANNER:1;
#MUSICLENGTH:193.914;
// end cache tags

//---------------dance-single - ----------------
#NOTES:
     dance-single:
     :
     Hard:
     9:
     1.000,1.000,1.000,1.000,1.000,1303.000,286.000,426.000,0.000,253.000:
0000
0000
0000
0000
0000
0000
0000
0000
0000
0000
0000
0000
1000
0100
0010
0001
,
2020
0000
0000
3230
0000
0000
2300
0000
,
3202
0000
0000
0323
0000
0000
0032
0000
,
0203
0320
0000
0000
0000
0000
0000
0000
0000
0000
0000
0000
0000
0000
0000
0000
,
1031
0110
1001
0000
0000
0000
0000
0100
,
1000
0100
0010
0000
0100
0010
0001
0000
0001
0010
0100
0000
0010
0100
1000
0000
,
1000
1000
1000
0000
0100
0100
0100
0000
0010
0010
0010
0000
0001
0001
0001
0000
,
0001
0001
0001
0000
0010
0010
0010
0000
0100
0100
0100
0000
1000
1000
1000
0000
,
1000
1000
0001
0001
0100
0100
0010
0010
1000
1000
0001
0001
0020
0000
0000
0000
,
0000
0000
0000
0000
,
2030
3200
0320
0032
2003
0200
3020
0302
,
1033
2100
3210
0321
0032
0203
0320
2030
,
3021
0001
0000
0100
0100
0000
1000
1000
0000
1000
0100
0000
0001
0000
0100
0000
,
1230
1000
0000
0010
0010
0000
0001
0001
0000
0001
0010
0000
1000
0000
0010
0000
,
0312
0010
0000
0100
0100
0000
1000
1000
0000
0010
1000
0000
0100
0000
0100
0000
,
2013
0000
0000
0010
0000
0000
0000
0000
0000
0100
0000
0000
0100
0000
0000
0000
0000
0000
0010
0000
0010
0000
0100
0000
0010
0000
0100
0000
0010
0000
0100
0000
0010
0000
0001
0000
0010
0000
0001
0000
0010
0000
0100
0000
0010
0000
0001
0000
,
3100
0000
0000
0011
0011
0000
1100
0000
0101
0000
0000
0000
0000
0000
0000
0000
,
1000
1000
1000
1000
0001
0010
0100
0010
0001
0001
0001
0001
1000
0100
0010
0100
,
2000
0000
0200
0320
0032
0000
0203
0302
0023
0000
0000
0000
0130
0100
0100
0000
,
3001
0001
0001
0001
1000
0100
0010
0100
1000
1000
1000
1000
0001
0010
0100
0010
,
0002
0000
0020
0230
0320
0000
0230
2300
3200
0000
0000
0000
0000
0303
0010
0100
,
1000
0100
0010
0001
0010
0001
0010
0100
0020
0000
0000
0000
0000
0030
0010
0100
,
1000
0100
0010
0001
0010
0001
0010
0100
0020
0000
0000
0030
0100
0100
0100
0000
,
2000
0000
0200
0000
0320
0000
0032
0000
3203
0000
2000
0000
3020
0000
0032
0000
0323
0000
0002
0000
0203
0000
2300
0000
3032
0000
0020
0000
0230
0000
2300
0003
,
3201
2310
3201
2310
3201
2310
3201
2310
3102
1023
0132
1023
0132
1023
0132
1023
,
0031
0010
0100
0010
0101
1010
0100
1000
1000
0100
0010
0100
1010
0101
0010
0001
,
0020
0000
2000
3002
0203
0000
2300
3002
0203
0000
0000
0000
1300
1000
1000
0000
,
1030
0100
0010
0100
1010
0101
0010
0001
0001
0010
0100
0010
0101
1010
0100
1000
,
0200
0000
0002
2003
3020
0000
0032
2003
3020
0000
0000
0000
0030
0000
1000
0010
,
0301
1000
0011
1100
0010
0100
0011
1100
0020
0000
0000
0000
0000
0000
0031
0100
,
1000
0001
1100
0011
0100
0010
1100
0011
0200
0000
0000
0000
0310
0010
0010
0000
,
2000
0002
0023
0130
3200
0002
0023
2030
3320
2000
3200
0301
0032
2000
3200
0320
,
2033
3200
0320
0032
0023
0230
2300
3202
2323
3232
0320
0230
2303
0020
3200
0032
,
1303
1000
1000
1000
0100
0001
0010
0100
0002
0000
0000
0000
0100
0100
0100
0000
,
1003
1000
1000
1000
0100
0001
0010
0100
0002
0000
0000
0000
0000
0000
2003
3200
,
2320
3030
0200
0320
0232
0303
2000
3200
2320
3030
0200
0320
0232
0303
1010
0000
,
2000
0200
0320
0230
3302
0020
0230
0323
0032
0000
0020
0203
2330
0000
3000
0000
,
1001
1001
0110
0110
1001
0110
1001
0110
2002
0000
0013
0010
0001
0000
0000
3000
,
1001
1001
0110
0110
1001
0110
1001
0110
2002
0000
3100
0100
1000
0003
0002
0023
,
0232
0303
0020
0230
2320
3030
0002
0023
0232
0303
0020
0230
2320
3030
0101
0000
,
0102
0100
1000
1000
0010
0010
0100
0100
0010
0010
1000
1000
0010
0010
0100
0100
,
0010
0100
1000
0100
1000
0100
0010
0100
2000
0000
0000
0000
3003
0000
0000
0000
,
1002
0100
0010
0100
1000
0010
1203
0321
2130
0010
0001
0010
0100
0010
0001
0010
,
3201
0010
1000
0010
0001
0010
1000
0010
1302
0100
0010
2103
0010
0001
3210
1000
,
0321
0100
1000
0100
1000
0001
1230
0312
2103
0010
0001
0010
0001
0010
0100
0010
,
3201
0010
1000
0010
0001
0010
1000
0001
1320
0100
0001
2130
0001
0010
3102
1000
,
0123
0001
0100
1000
0001
1000
0231
1320
0231
1000
0010
0001
0010
1000
0010
0001
,
2310
0001
0010
0100
3021
0100
1000
0100
1032
0100
0010
0100
0010
0100
1023
0001
,
1230
0001
0010
0001
0010
0001
1320
0132
2013
0100
0010
0001
0010
0001
0010
0100
,
0010
0100
0010
0001
0010
0001
0010
0100
0010
0001
3210
1000
0010
1000
0312
1000
,
0123
1000
0100
1032
0010
0100
1023
0001
1230
0001
0010
2301
0100
0010
3201
0010
,
1302
0100
0010
1203
0001
0010
1302
0010
2103
0010
0001
3120
1000
0100
2031
0100
,
3012
0100
1000
0213
1000
0001
1320
0100
2031
0010
0100
3021
1000
0001
1230
0001
,
1320
0100
1000
0132
0010
1000
0213
0001
2310
0001
0010
0100
0010
0001
0010
0100
,
3012
0000
0000
0000
0000
0000
1003
0100
1000
0001
0010
0001
1000
0100
0010
0100
0001
0010
0100
0010
1000
0100
0010
0001
,
2000
0000
0000
0000
0000
0000
0000
0000
0000
0000
0000
0000
3001
0000
0010
0000
0001
0000
1000
0000
0100
0000
1000
0000
0001
0000
0010
0000
0100
0000
0010
0000
1000
0000
0100
0000
0010
0000
0100
0000
0001
0000
0010
0000
0000
0100
0000
0000
,
1010
0000
0001
0010
0101
0000
1000
0100
1010
0000
0100
0010
0101
0000
1010
0000
,
1200
0010
1000
0010
1000
0001
1000
0001
0320
0000
0000
0000
0130
0000
1100
1010
,
1001
0000
1100
0110
0101
0000
1010
0110
0011
0000
1001
0101
0011
0000
1001
0000
,
0201
0000
0000
0000
0321
0000
0000
0000
2130
0000
0000
0000
3102
0000
0000
0000
0213
0000
0000
0000
2310
0000
0000
3000
1020
0000
0000
0000
1032
0000
0000
0000
,
0203
0000
0000
0000
0300
0000
0011
1100
0011
0000
0000
0000
0000
0000
0000
0000
,
1000
0001
1000
0001
0110
1001
0110
1001
0100
0010
0100
0010
1001
0110
1001
0110
,
0002
0000
2000
3020
0230
0000
0320
0230
2300
0000
0000
0000
3100
0100
0103
0000
,
0001
1000
0001
1000
0011
0101
1001
0101
0010
0100
0010
0100
1100
1010
1001
1010
,
2000
0000
0002
0203
0320
0000
0230
0320
0032
0000
0000
0000
0003
0000
3001
0010
,
1000
0110
1000
0110
0001
0110
0001
0110
0220
0000
0000
0000
0330
0000
0001
1000
,
0001
0110
0001
0110
1000
0110
1000
0110
0220
0000
0000
0000
0330
0000
0000
0000
,
0002
0020
0230
0323
2032
3200
0320
0230
2303
0020
3230
2000
0320
3032
2003
0200
,
3302
0020
0230
2303
0200
0320
0032
0023
0032
3020
0230
2303
0200
0320
0032
3023
,
1030
0010
1000
0010
0101
1010
0101
1010
0202
0000
0313
0010
0010
0000
0000
0000
,
0001
0100
0001
0100
1010
0101
1010
0101
2020
0000
3130
0100
0100
0000
1002
0010
,
1003
0000
0012
0100
1003
0000
1002
0100
0013
0000
0012
1000
0013
0000
0100
0000
,
2020
0230
3020
0302
0230
0023
2030
0302
3023
0000
0002
0203
1330
0000
0000
0000
,
1000
1000
0010
0010
0001
0001
0100
0100
0022
0000
0000
1033
0100
1000
0000
0000
,
0001
0001
0100
0100
1000
1000
0010
0010
2200
0000
0000
3300
0000
0000
2001
0100
,
3001
0000
2001
0010
3100
0000
2100
0010
3001
0000
2100
0001
3100
0000
0010
0000
,
1020
0100
0001
0100
0001
0100
1000
0100
1000
0100
0001
0100
0001
0100
1000
0100
,
1000
0100
1000
0100
0001
0100
0001
0100
2032
0000
0000
0000
3003
0000
0000
0000
,
0201
0010
0001
0010
,
0001
0010
0001
0010
,
0001
0010
0001
0010
,
0001
0010
0001
0010
,
0001
0010
0001
0010
,
0001
0010
0001
0010
,
0001
0010
0001
0010
,
0001
0010
0001
0010
,
0302
0000
0023
0000
1230
0000
0302
0000
0023
0000
1230
0000
0320
0000
0230
0000
2301
0000
3200
0000
0320
0000
0032
1000
1023
0000
0230
0000
0302
0000
0023
0000
,
2030
3200
0321
2030
3200
0321
0230
0320
1032
0023
0230
2300
3201
0320
2030
3200
,
0301
0010
0101
1010
0100
1000
0101
0010
0101
0010
0101
1010
0100
1010
0100
1010
,
0101
0010
0100
1000
0010
0100
0001
0010
0100
1000
0100
0010
0001
0100
0010
1000
,
0001
0010
0100
0010
0001
0010
0100
1000
,
0100
1000
0100
0010
0001
0010
0100
1000
,
0102
0010
0100
0010
0100
0010
0100
0010
,
2103
0010
0100
0010
0100
0010
0100
0010
,
3001
0001
0001
0001
1010
0100
1000
0101
1000
1000
1000
1000
0101
0010
0001
1010
,
0002
1000
0100
0010
2003
0001
0010
0100
3020
0000
0000
0000
1031
1001
1001
0000
,
1000
1000
1000
1000
0101
0010
0001
1010
0001
0001
0001
0001
1010
0100
1000
0101
,
2000
0001
0010
0100
3002
1000
0100
0010
0203
0000
0000
0000
0300
0000
1100
0101
,
1010
1010
1010
0101
0010
0100
1000
0100
0022
0000
0000
0000
0033
0000
0011
1010
,
0101
0101
0101
1010
0100
0010
0001
0010
2200
0000
0000
0300
3001
0001
0001
0000
,
2200
3020
0032
2003
3322
0203
2300
3200
2332
0023
0230
0320
3232
2300
3200
0320
,
2033
0200
3020
2300
0032
3200
2003
0320
3002
2030
0023
3200
0032
0320
0203
2030
,
3302
0000
0013
0001
0020
0000
0130
0010
0200
0000
2300
0200
3020
0332
0020
0203
,
2330
0000
3100
1000
0200
0000
0310
0100
0020
0000
0032
0020
0203
2330
0200
3020
,
0331
0000
1000
0001
1000
0000
0100
0010
0100
0000
1000
0100
0010
0001
0010
0100
,
1000
0100
1010
0100
1000
0100
1001
0010
1000
0100
0011
0100
1000
0010
0101
0010
,
0001
0010
1100
0010
0001
0010
0101
0010
0100
1000
0110
0010
0001
0100
1010
0100
,
1010
0100
1000
0001
1010
0100
1000
0100
1010
0001
0010
0100
1010
0100
0010
0001
,
0110
1000
0100
0010
0011
0010
0100
1000
1100
0100
0010
0100
1001
0010
0100
1000
,
0001
0011
0010
0110
0100
1100
1000
1100
0100
0110
0010
0011
0010
0110
0100
1100
,
0020
0000
0000
0000
0000
0000
0100
0100
0100
0000
0000
0000
0030
0000
0000
0000
;

//---------------dance-single - ----------------
#NOTES:
     dance-single:
     :
     Medium:
     7:
     0.700,0.969,0.232,0.872,0.492,736.000,45.000,169.000,0.000,28.000:
0000
0000
0000
0000
0000
0000
0000
0000
0000
0000
0000
0000
1000
0100
0010
0001
,
0020
0000
0000
0230
0000
0000
2300
0000
,
3200
0000
0000
0320
0000
0000
0032
0000
,
0103
0020
0000
0000
0000
0000
0000
0000
0000
0000
0000
0000
0000
0000
0000
0000
,
1030
0100
0010
0000
0000
0000
0000
0100
,
1000
1000
1000
1000
1000
1000
1000
1000
,
0100
0100
0100
0100
0100
0100
0100
0100
,
0010
0010
0010
0010
0010
0010
0010
0010
,
1000
0001
0100
0010
1000
0001
0020
0000
,
0000
0000
0000
0000
,
1030
0100
0010
0001
1000
0100
0010
0001
,
1000
0100
0010
0001
0001
0100
0010
1000
,
0021
0000
0000
0100
0000
0000
1000
0000
0000
1000
0000
0000
0001
0000
0100
0000
,
1230
0000
0000
0010
0000
0000
0001
0000
0000
0001
0000
0000
1000
0000
0010
0000
,
0312
0000
0000
0100
0000
0000
1000
0000
0000
1000
0000
0000
0100
0000
0100
0000
,
2013
0000
0000
0100
0000
0000
0020
0000
0000
0000
0000
0000
0000
0000
0000
3030
,
0100
0000
0000
0010
0001
0000
1000
0000
0100
0000
0000
0000
0000
0000
0000
0000
,
2000
0000
0000
3000
0100
0010
0100
0010
0002
0000
0000
0003
0010
0100
0010
0100
,
2000
0000
3002
0003
0020
0000
0030
0000
,
0002
0000
0000
0003
0010
0100
0010
0100
2000
0000
0000
3000
0100
0010
0100
0010
,
0002
0000
0000
0000
0203
0000
0300
0000
0020
0000
0000
0000
0030
0000
0010
0100
,
2000
0000
0000
3000
0010
0100
1000
0100
0020
0000
0000
0000
0000
0030
0010
0100
,
2000
0000
0000
0000
3010
0001
0010
0100
0020
0000
0000
0030
0000
0000
0000
0000
,
1000
0010
1000
0010
0001
0100
0001
0100
,
1000
0001
1000
0001
0100
0010
0100
0010
,
0001
0000
0001
0000
0001
0010
0100
1000
1000
0000
1000
0000
1000
0100
0010
0001
,
0020
0000
0000
0000
0230
0000
0300
0000
2000
0000
0000
3000
0000
0000
0000
0000
,
1000
0000
1000
0000
1000
0100
0010
0001
0001
0000
0001
0000
0001
0010
0100
1000
,
0200
0000
0000
0000
0320
0000
0030
0000
0002
0000
0000
0000
0003
0000
1000
0010
,
2000
0000
0000
3000
0100
0010
1000
0100
0020
0000
0000
0000
0000
0000
0031
0100
,
0002
0000
0000
0003
0010
0100
0001
0010
0200
0000
0000
0000
0300
0000
0000
0000
,
2000
0000
3001
0010
0200
0000
0310
1000
0020
0000
0130
1000
0002
0000
1003
0100
,
2000
3200
0302
0023
2030
3020
0230
0302
,
2003
0000
0000
3000
0100
0001
0010
0100
0002
0000
0000
0000
0000
0000
0000
0000
,
2003
0000
0000
3000
0100
0001
0010
0100
0002
0000
0000
0000
0000
0003
1000
0100
,
0010
0000
0100
0010
0001
0000
1000
0100
0010
0000
0100
0010
0001
0000
1010
0000
,
0200
0000
0000
0000
0300
0010
0001
0000
,
0002
0000
0000
0003
0010
1000
0100
0010
2000
0000
0000
0000
0000
0000
0000
0000
,
3002
0000
0000
0003
0010
1000
0100
0010
2000
0000
0000
0000
0000
3000
0001
0010
,
0100
0000
0010
0100
1000
0000
0001
0010
0100
0000
0010
0100
1000
0000
0101
0000
,
0020
0000
0000
0000
,
0000
0000
0000
0000
0000
0000
0000
0030
2000
0000
0000
0000
3000
0000
0000
0000
,
0102
0000
1000
0023
2130
0000
0010
0000
,
3201
0000
0000
0000
0010
0000
0000
0000
1302
0000
0000
2003
0001
0000
3200
0000
,
1320
0000
0100
0032
2103
0000
0010
0000
,
3201
0000
0000
0000
0001
0000
0000
0000
1320
0000
0000
2030
0100
0000
3002
0000
,
1023
0000
0000
0000
0001
0000
0130
0010
1200
0000
0000
0000
0010
0000
0000
0000
,
2301
0000
3120
0000
1032
0000
0010
0023
,
0231
0000
0000
0000
1000
0000
0310
0001
2010
0000
0000
0000
0001
0000
0000
0000
,
0100
0000
0010
0000
0010
3200
0001
0302
,
1023
0000
0000
0032
0100
0000
0023
0000
1230
0000
0000
2300
0010
0000
3200
0000
,
1302
0000
0000
0203
0010
0000
0302
0000
2103
0000
0000
3020
0001
0000
2030
0000
,
3012
0000
0000
0203
1000
0000
0320
0000
2130
0000
0000
3020
0001
0000
0230
0000
,
1320
0000
0000
0032
1000
0000
0203
0000
2301
0000
0000
0000
0010
0000
0000
0000
,
3002
0000
2003
0000
,
3020
0000
0000
0000
0000
0000
0000
0000
0230
0000
0000
0000
0300
0000
0010
0100
,
1000
0000
0001
0010
0100
0000
1000
0100
0010
0000
0100
0010
0001
0000
1010
0000
,
0200
0000
0000
0000
0000
0000
0000
0000
0320
0000
0000
0000
0030
0000
0100
1000
,
0100
0000
0010
0001
0010
0000
1000
0100
1000
0000
0001
0010
0001
0000
1001
0000
,
1100
1010
1001
0101
0011
0101
1001
1010
,
0200
0000
0000
0000
0300
0000
0001
1000
0001
0000
0000
0000
0000
0000
0000
0000
,
1000
0001
1000
0001
0020
0000
0000
0000
0031
1000
0001
1000
0200
0000
0000
0000
,
0302
0000
0200
0320
2030
0000
3000
0003
,
0100
0010
0100
0010
0002
0000
0000
0003
0010
0100
0010
0100
2000
0000
0000
3000
,
2000
0000
0000
0000
0020
0000
0230
0000
0302
0000
0000
0000
0003
0000
3001
0010
,
1000
0100
1000
0100
0001
0010
0001
0010
0200
0000
0000
0000
0300
0000
0001
1000
,
0001
0010
0001
0010
1000
0100
1000
0100
0020
0000
0000
0000
0030
0000
0000
0000
,
2000
3100
0002
0013
0200
1300
0020
0031
,
0002
0103
2000
3010
0200
0301
0020
1030
,
1000
0010
1000
0010
0100
0001
0100
0001
0202
0000
0000
0303
0000
0000
0000
0000
,
0001
0100
0001
0100
0010
1000
0010
1000
2020
0000
0000
0000
3030
0000
1000
0010
,
0001
0000
0010
0100
0001
0000
1000
0100
0001
0000
1000
0010
0001
0000
0100
0000
,
0200
0000
0000
0000
0300
0010
0001
0000
,
1000
0100
1000
0100
0010
0001
0010
0100
0020
0000
0000
0000
0030
0000
0000
0000
,
0001
0010
0001
0010
0100
1000
0100
0010
0200
0000
0000
0300
0000
0000
0001
0010
,
0100
0000
0001
0010
1000
0000
0010
0100
1000
0000
0100
0010
1000
0000
0010
0000
,
0020
0000
0000
0000
,
0000
0000
2032
3003
,
0201
0000
0001
0000
,
0001
0000
0001
0000
,
0001
0000
0001
0000
,
0001
0000
0001
0000
,
0001
0000
0001
0000
,
0001
0000
0001
0000
,
0001
0000
0001
0000
,
0001
0000
0001
0000
,
0302
2003
3200
0320
,
2030
3002
0023
0230
,
1300
0100
0010
1000
0100
0010
1000
0100
,
0001
0010
0100
1000
0100
0001
0100
1000
,
0200
0000
0000
0000
,
0000
0000
0000
0000
,
0302
0000
0000
0000
,
2003
0000
0000
0000
,
3020
0000
0000
0030
0100
1000
0001
0010
0200
0000
0000
0300
0010
0001
1000
0100
,
0001
0000
0010
0100
1000
0000
0100
0001
0020
0000
0000
0000
0030
0000
0000
0000
,
2000
0000
0000
3000
0100
0010
1000
0010
0002
0000
0000
0003
0010
0100
0001
0100
,
0001
0000
0100
1000
0001
0000
0010
0100
2000
0000
0000
0000
3000
0000
0001
0100
,
1000
1000
1000
0100
0001
0100
1000
0010
2002
0000
0000
0000
3003
0000
1000
0010
,
0001
0001
0001
0010
1000
0010
0001
0100
2002
0000
0000
0000
3003
0000
0000
0000
,
1000
0100
1000
0100
0001
0010
0001
0010
1000
0010
1000
0010
0001
0100
0001
0100
,
1000
0100
0010
0001
0010
0100
1000
0100
0010
0001
0010
0100
1000
0100
0010
0001
,
1000
0000
1000
0100
1000
0000
0010
0100
0010
0000
1000
0100
0010
0001
0010
0100
,
0001
0000
0001
0010
0001
0000
0100
0010
0100
0000
0001
0010
0100
1000
0100
0010
,
0001
0000
1000
0001
1000
0000
0100
0010
0100
0000
1000
0100
0010
0001
0010
0100
,
1000
0000
1000
0100
1000
0000
0100
0010
0100
0000
0010
0100
0010
0000
0010
0001
,
0010
0000
0001
0010
0001
0000
0010
0100
0010
0000
0100
1000
0100
0000
1000
0100
,
2000
0000
0000
0000
,
3020
0000
0000
0000
,
0031
0010
0100
0010
0001
0010
0100
1000
0100
0010
0100
0010
0100
1000
0100
0010
,
0001
0000
0000
0000
0000
0000
0100
0100
0100
0000
0000
0000
0000
0000
0000
0000
;

//---------------dance-single - ----------------
#NOTES:
     dance-single:
     :
     Easy:
     4:
     0.360,0.513,0.139,0.325,0.057,399.000,27.000,63.000,0.000,0.000:
0000
0000
0000
0000
,
0000
0000
0000
0000
,
0000
0000
0000
0000
,
0000
0020
0000
0000
0000
0000
0000
0000
0000
0000
0000
0000
0000
0000
0000
0030
,
1001
0000
0000
0000
,
0000
0000
0000
0000
,
0000
0000
0000
0000
,
0000
0000
0000
0000
,
0000
0000
0000
0020
,
0000
0000
0000
0000
,
1030
0100
0010
0001
1000
0100
0010
0001
,
1000
0100
0010
0001
0001
0100
0010
1000
,
0020
0000
0000
0000
,
0230
0000
0000
0000
,
0310
0000
0000
0100
0000
0000
1000
0000
0000
1000
0000
0000
0100
0000
0100
0000
,
1000
0000
0000
0100
0000
0000
0002
0000
0000
0000
0000
0000
0000
0000
0003
0000
,
0100
0001
0100
0000
,
2000
0000
0000
3000
0000
0000
0000
0000
0002
0000
0000
0003
0000
0000
0000
0000
,
1000
0001
0020
0030
,
0002
0000
0000
0003
0000
0000
0000
0000
2000
0000
0000
3000
0000
0000
0000
0000
,
0001
0100
0020
0030
,
2000
0000
0000
3000
0000
0000
0000
0000
0020
0000
0000
0000
0000
0030
0000
0000
,
2000
0000
0000
0000
3000
0000
0000
0000
0020
0000
0000
0030
0000
0000
0000
0000
,
1000
0010
1000
0010
0001
0100
0001
0100
,
1000
0001
1000
0001
0100
0010
0100
0010
,
0001
0001
0001
0000
1000
1000
1000
0000
,
0010
0000
0100
0100
2000
0000
3000
0000
,
0100
0100
0100
0000
0010
0010
0010
0000
,
0100
0000
0010
0010
0002
0000
0003
0000
,
2000
0000
0000
3000
0100
0000
0001
0000
0020
0000
0000
0000
0000
0000
0030
0000
,
0002
0000
0000
0003
0010
0000
1000
0000
0200
0000
0000
0000
0300
0000
0000
0000
,
1000
0100
0010
0001
,
1000
0100
0001
0010
1000
0010
0100
0001
,
1000
0000
0100
0010
0002
0000
0003
0000
,
2000
0000
0000
3000
0100
0000
0010
0000
0002
0000
0000
0000
0003
0000
1000
0000
,
0010
0100
0001
1000
0010
0100
0001
0010
,
0200
0000
0000
0000
0300
0010
0001
0000
,
0002
0000
0000
0003
0010
0000
0100
0000
2000
0000
0000
0000
3000
0000
0000
0000
,
0002
0000
0000
0003
0010
0000
0100
0000
2000
0000
0000
0000
3000
0000
0001
0000
,
0100
0010
1000
0001
0100
0010
1000
0100
,
0020
0000
0000
0000
,
0000
0000
0000
0000
0000
0000
0000
0030
2000
0000
0000
0000
3000
0000
0000
0000
,
0001
0000
0000
0010
1000
0000
0000
0000
,
0100
0000
0000
0000
0000
0000
0000
0000
0001
0000
0000
1000
0000
0000
0100
0000
,
0010
0000
0000
0001
1000
0000
0000
0000
,
0100
0000
0000
0000
0000
0000
0000
0000
0010
0000
0000
1000
0000
0000
0001
0000
,
0010
0000
0100
0000
,
0000
0000
0010
0000
0001
0000
0000
0010
,
0100
0000
1000
0000
,
0000
0000
0000
0000
0000
0100
0100
0001
,
0010
0000
0000
0001
0000
0000
0010
0000
0100
0000
0000
1000
0000
0000
0100
0000
,
0001
0000
0000
0100
0000
0000
0001
0000
1000
0000
0000
0010
0000
0000
1000
0000
,
0001
0000
0000
0100
0000
0000
0010
0000
1000
0000
0000
0010
0000
0000
0100
0000
,
0010
0000
0000
0001
0000
0000
0100
0000
2000
0000
0000
0000
0000
3000
0000
0000
,
0002
0000
2003
0000
,
3020
0000
0000
0000
0230
0000
0300
0010
,
1000
0001
0100
1000
0010
0100
0001
0010
,
0200
0000
0000
0000
0320
0000
0030
0100
,
0100
0010
0010
1000
1000
0001
0001
0100
,
1000
0010
0100
0010
0001
0100
0010
0100
,
0200
0300
0000
0000
,
1000
1100
0010
0011
,
0001
0000
0100
0010
2000
0000
3000
0000
,
0010
0101
0100
1010
,
1000
0000
0010
0100
0002
0000
0003
0000
,
2000
0000
0000
3000
0001
0000
0001
0000
0200
0000
0000
0000
0300
0000
0000
0000
,
0002
0000
0000
0003
1000
0000
1000
0000
0020
0000
0000
0000
0030
0000
0000
0000
,
0001
0001
0001
0001
,
0010
0100
1000
0100
,
1000
1000
0010
0000
0101
0000
0000
0000
,
0001
0001
0100
0000
1010
0000
0000
1000
,
0001
0010
0001
0100
0001
1000
0001
0100
,
0200
0000
0300
0001
,
1000
1000
0100
0001
0020
0000
0030
0000
,
0001
0000
0001
0000
0100
0000
1000
0000
0200
0000
0000
0300
0000
0000
0001
0000
,
1000
0100
1000
0010
1000
0001
1000
0100
,
0020
0000
0000
0000
,
0000
0000
0000
0030
2002
0000
3003
0000
,
0200
0000
0000
0000
,
0000
0000
0000
0000
,
0000
0000
0000
0000
,
0000
0000
0000
0000
,
0000
0000
0000
0000
,
0000
0000
0000
0000
,
0000
0000
0000
0000
,
0000
0000
0000
0000
,
0301
1000
0010
0100
,
1000
0001
0100
0010
,
1100
0000
0000
0000
,
0011
0000
0000
0000
,
0110
0000
0000
0000
,
0000
0000
0000
0000
,
0101
0000
0000
0000
,
1010
0000
0000
0000
,
1000
0010
0101
0010
0001
0100
1010
0100
,
0001
0000
1000
0100
0021
0000
0031
0000
,
1000
0100
0011
0100
0001
0010
1100
0010
,
1000
0000
0100
0001
1200
0000
1300
0000
,
2000
0000
0000
3000
0010
0001
0010
0000
0200
0000
0000
0000
0300
0000
0000
0000
,
0002
0000
0000
0003
1000
0100
1000
0000
0020
0000
0000
0000
0030
0000
0000
0000
,
0001
0010
0001
0010
0001
0010
0001
0010
,
1000
0100
1000
0100
1000
0100
0010
0001
,
1000
0000
0000
0100
0100
0000
0000
0010
0010
0000
0200
0000
0000
0000
0000
0300
,
0001
0000
0000
0010
0010
0000
0000
0100
0100
0000
0020
0000
0000
0000
0000
0030
,
0001
0000
0000
0010
0010
0000
0000
0100
0100
0000
2000
0000
0000
0000
0000
0000
,
3000
0011
0000
0101
0000
1001
0000
1010
,
0000
1100
0000
0110
0000
0011
0000
0110
,
2000
0000
0000
0000
,
3020
0000
0000
0000
,
0031
0100
0010
1000
0001
0010
0100
1000
,
0100
0000
0000
0000
0000
0000
0001
0001
0001
0000
0000
0000
0000
0000
0000
0000
;

//---------------dance-single - ----------------
#NOTES:
     dance-single:
     :
     Challenge:
     13:
     1.000,1.000,1.000,1.000,1.000,1343.000,459.000,582.000,0.000,538.000:

0000
0000
0000
0000
0000
0000
0000
0000
0000
0000
0000
0000
0000
0000
0000
0000
0000
0000
0000
0000
0000
0000
0000
0000
2000
0000
0200
0000
0020
0000
0002
3333
,
2020
0000
0000
3230
0000
0000
2300
0000
,
3202
0000
0000
0323
0000
0000
0032
0000
,
0203
0320
0000
0000
0000
0000
0000
0000
0000
0000
0000
0000
0000
0000
0000
0000
,
1031
0110
1001
0000
0000
0000
0000
0100
,
1000
0100
0010
0000
0100
0010
0001
0000
0001
0010
0100
0000
0010
0100
1000
0000
,
1000
1000
1000
0000
0100
0100
0100
0000
0010
0010
0010
0000
0001
0001
0001
0000
,
0001
0001
0001
0000
0010
0010
0010
0000
0100
0100
0100
0000
1000
1000
1000
0000
,
1000
1000
0001
0001
0100
0100
0010
0010
1000
1000
0001
0001
0020
0000
0000
0000
,
0000
0000
0000
0000
,
2030
0000
0200
3000
0020
0300
0002
0030
2003
0000
0200
3000
0020
0300
0002
0030
,
1000
0003
2100
0000
3210
0000
0321
0000
0032
0000
0020
0000
0200
0000
2000
3333
,
0121
1001
0000
1100
0101
0000
1100
1001
0000
1100
0101
0000
1001
0000
1100
0000
,
1231
1010
0000
0011
1010
0000
0011
1001
0000
1001
0011
0000
1010
0000
0011
0000
,
1312
1010
0000
0110
0110
0000
1100
1100
0000
0110
1100
0000
1100
0000
0110
0000
,
2113
0000
0000
0011
0000
0000
0000
0000
0000
0110
0000
0000
0101
0000
0000
0000
0000
0000
0010
0000
0010
0000
0100
0000
0010
0000
0001
0000
0010
0000
0100
0000
0010
0000
0100
0000
0010
0000
0100
0000
0010
0000
0001
0000
0010
0000
0001
0000
,
3110
0000
0000
0011
0011
0000
0110
0000
1001
0000
0000
0000
0000
0000
0000
0000
,
1010
1100
1010
1100
0001
0010
1100
0010
0101
0011
0101
0011
1000
0100
0011
0100
,
2000
0000
0200
0020
0331
0000
0200
0002
0323
0000
0000
0000
0100
0100
0100
0030
,
3011
0101
0011
0101
1000
0100
0011
0100
1100
1010
1100
1010
0001
0010
1100
0010
,
0002
0000
0020
0200
1330
0000
0020
2000
3230
0000
0000
0000
0000
0303
0010
0100
,
1010
0100
1010
0001
0110
0001
1010
0100
0020
0000
0000
0000
0000
0030
0010
0100
,
1010
0100
1010
0001
0110
0001
1010
0100
0020
0000
0000
0030
0100
0100
0100
0000
,
2000
0000
0200
0000
0320
0000
0002
0000
3233
0000
2000
0000
0020
0000
0032
0000
3323
0000
0002
0000
0203
0000
2000
0000
3332
0000
0020
0000
0200
0000
2330
0003
,
3210
2310
3201
2301
3210
2310
3201
2301
3102
0123
1032
1023
0132
0123
1032
1023
,
0131
1000
0100
1000
0001
1010
0101
1010
0101
1000
0010
0100
1000
0100
1010
0101
,
0020
0000
2000
0002
3103
0000
2000
0002
3203
0000
0000
0000
1300
1000
1030
0000
,
1010
0001
0010
0001
1000
0101
1010
0101
1010
0001
0100
0010
0001
0010
0101
1010
,
0200
0000
0002
2000
3013
0000
0002
2000
3023
0000
0000
0000
0030
0000
1000
0010
,
0301
1000
0011
1100
0010
0100
0011
1100
0020
0000
0000
0000
0000
0000
0031
0100
,
1000
0001
1100
0011
0100
0010
1100
0011
0200
0000
0000
0000
0310
0010
0010
0000
,
2000
0000
0002
0000
0023
0000
0130
0000
3200
0000
0002
0000
0023
0000
2030
0000
3320
0000
2000
0000
0200
0000
0001
0000
3332
0000
2000
0000
0200
0000
0020
3330
,
2003
0200
0020
3332
0020
0200
2333
3202
2323
3202
2300
3200
2303
0002
3203
0032
,
1313
1010
1010
1010
0101
0011
0110
1100
0002
0000
0100
0100
0100
0000
0003
0000
,
0011
0011
0011
0011
1100
0100
0101
1010
0002
0000
0000
0000
0000
0000
2103
3210
,
0321
0030
0202
0323
0232
0303
2100
3210
0321
0030
0202
0323
0232
0303
1010
0000
,
2000
0200
0320
0230
3302
0020
0230
0323
0230
0000
2000
0002
0020
3333
0000
0000
,
1001
1001
0110
0110
1001
0110
1001
0110
2002
0000
0010
0010
0100
0000
0003
3000
,
1001
1001
0110
0110
1001
0110
1001
0110
2002
0000
0100
0100
3010
0003
0012
0123
,
1230
0300
2020
3230
2320
3030
0012
0123
1230
0300
2020
3230
2320
3030
0101
0000
,
0102
0100
1010
1010
0100
0010
1000
0010
1100
0010
1010
0100
1010
0100
1010
0100
,
0010
0100
1000
0100
1000
0100
0010
0100
2000
0000
0000
0000
3003
0000
0000
0000
,
1012
0100
0010
0100
1010
0010
1203
0321
2131
0010
0001
0010
0101
0010
0001
0010
,
3211
0010
1000
0010
1001
0010
1000
0010
1312
0100
0010
2103
0110
0001
3210
1000
,
1321
0100
1000
0100
1100
0001
1230
0312
2113
0010
0001
0010
0101
0010
0100
0010
,
3211
0010
1000
0010
1001
0010
1000
0001
1321
0100
0001
2130
0101
0010
3102
1000
,
1123
0001
0100
1000
0101
1000
0231
1320
1231
1000
0010
0001
0011
1000
0010
0001
,
2311
0001
0010
0100
3121
0100
1000
0100
1132
0100
0010
0100
1010
0100
1023
0001
,
1231
0001
0010
0001
1010
0001
1320
0132
2113
0100
0010
0001
0110
0001
0010
0100
,
0011
0100
0010
0001
0110
0001
0010
0100
0011
0001
3210
1000
0011
1000
0312
1000
,
1123
1000
0100
1032
0110
0100
1023
0001
1231
0001
0010
2301
0110
0010
3201
0010
,
1312
0100
0010
1203
0011
0010
1302
0010
2113
0010
0001
3120
1001
0100
2031
0100
,
3112
0100
1000
0213
1001
0001
1320
0100
2131
0010
0100
3021
1100
0001
1230
0001
,
1321
0100
1000
0132
1010
1000
0213
0001
2311
0001
0010
0100
0011
0001
0010
0100
,
3002
0000
0000
0000
0000
0000
0020
0230
2300
3020
0230
0320
2233
0302
0023
0230
0302
0023
0032
0023
0230
0302
0203
0320
,
3032
0000
0000
0000
0000
0000
0000
0000
0000
0000
0000
0000
0200
0000
0320
0000
0230
0000
2300
0000
3020
0000
0230
0000
2320
0000
0233
0000
0302
0000
0023
0000
0230
0000
0320
0000
3032
0000
0203
0000
0300
0000
1010
0000
0000
0100
0000
0000
,
1010
0000
0001
0010
0101
0000
1000
0100
1010
0000
0100
0010
0101
0000
1010
0000
,
1200
0010
1000
0010
1000
0001
1000
0001
0320
0000
0000
0000
0130
0000
1100
1010
,
1001
0000
1100
0110
0101
0000
1010
0110
0011
0000
1001
0101
0011
0000
1001
0000
,
0201
0000
0021
0300
2100
0030
0102
3000
0210
0003
2010
0300
0021
3000
1002
0030
,
0203
0000
0000
0000
0300
0000
0011
1100
0011
0000
0000
0000
0000
0000
0000
0000
,
1000
0001
1000
0001
0110
1001
0110
1001
0100
0010
0100
0010
1001
0110
1001
0110
,
0002
0000
2000
0020
3230
0000
0320
0200
2330
0000
0000
0000
3100
0100
0103
0000
,
0001
1000
0001
1000
0011
0101
1001
0101
0010
0100
0010
0100
1100
1010
1001
1010
,
2000
0000
0002
0200
0323
0000
0230
0020
0332
0000
0000
0000
0003
0000
3001
0010
,
1000
0110
1000
0110
0001
0110
0001
0110
0220
1000
0001
1000
0331
0000
0001
1000
,
0001
0110
0001
0110
1000
0110
1000
0110
0220
0001
1000
0001
1330
0000
0000
0000
,
0002
0020
0200
2030
3320
0200
2003
0302
3200
0000
2030
3023
2302
0230
0023
0031
,
3302
0020
0200
2333
0200
0020
0332
0023
0232
3320
0230
2323
0230
0020
0332
3020
,
1033
0010
1000
0010
0101
1010
0101
1010
0202
0000
0313
0010
0010
0000
0000
0000
,
0001
0100
0001
0100
1010
0101
1010
0101
2020
0000
3130
0100
0100
0000
1002
0010
,
1003
0000
0012
0100
1003
0000
1002
0100
0013
0000
0012
1000
0013
0000
0100
0000
,
2020
0230
3020
0302
0230
0023
2030
0302
3023
0000
0002
0200
2000
3333
0000
0000
,
1000
1000
0010
0010
0001
0001
0100
0100
0022
0000
1000
0133
1000
0000
0000
0000
,
0001
0001
0100
0100
1000
1000
0010
0010
2200
0000
3301
0010
0001
0000
2001
0100
,
3001
0000
2001
0010
3100
0000
2100
0010
3001
0000
2100
0001
3100
0000
0010
0000
,
1020
0100
0001
0100
0001
0100
1000
0100
1000
0100
0001
0100
0001
0100
1000
0100
,
1000
0100
1000
0100
0001
0100
0001
0100
2032
0000
0000
0000
3003
0000
0000
0000
,
1201
0010
1001
0010
,
1001
0010
1001
0010
,
0011
1000
0011
1000
,
0011
1000
0011
1000
,
1010
0001
1010
0001
,
1010
0001
1010
0001
,
1000
0011
1000
0011
,
1000
0011
1000
0011
,
0312
1000
0100
1000
0010
1000
0100
0010
2003
0010
0001
0100
0010
0100
0001
0010
3201
0010
1000
0001
0010
0001
0010
1000
0321
0100
1000
0001
0100
1000
0100
0001
,
2230
0001
0320
0001
0230
0001
0320
0100
3232
0010
2300
0010
3200
0010
2300
0010
3223
1000
0302
0100
2003
0100
3002
1000
2233
0010
3002
1000
0023
0001
2030
0010
,
3301
0010
0101
1010
0100
1000
0101
0010
0101
0010
0101
1010
0100
1010
0100
1010
,
0101
0010
0100
1000
0010
0100
0001
0010
0100
1000
0100
0010
0001
0100
0010
1000
,
0201
0010
1000
0010
0001
0010
1000
0010
,
1000
0010
0001
0010
1000
0010
0001
0010
,
1312
0000
0100
0000
1010
0000
0100
0000
1010
0000
0100
0000
1010
0000
0100
0003
,
2101
0010
0101
0010
0101
0010
0101
0010
,
3011
0110
1100
0110
1001
0110
1001
0110
1100
0110
0011
0110
1001
0110
1001
0110
,
0002
1000
0100
0010
2003
0001
0010
0100
3020
0000
0000
0000
1031
1001
1001
0000
,
1001
1010
1100
1010
0101
0010
0001
0010
1001
0101
0011
0101
1010
0100
1000
0101
,
2000
0001
0010
0100
3002
1000
0100
0010
0203
0000
0000
0000
0300
0000
1100
0101
,
1010
1010
1010
0101
0010
0100
1000
0100
0022
0000
0000
0000
0033
0000
0011
1010
,
0101
0101
0101
1010
0100
0010
0001
0010
2200
0000
0000
0000
3301
0001
0001
0000
,
2200
3020
0032
2003
3002
0023
2030
3002
2003
3020
2030
3020
0032
2003
3020
0032
,
2323
0000
3232
0000
2323
0000
3232
0003
2302
0000
3223
0000
2332
0000
3223
0330
2200
0000
3322
0000
2233
0000
3322
0000
0233
0000
0320
0000
0232
0000
2323
0000
,
3032
0000
0000
0000
0020
0000
0200
0000
2030
0000
0000
0000
0320
0000
3200
0000
2000
0000
0003
0000
0032
0000
0320
0000
3200
0000
2000
0300
0230
0000
0020
3333
,
2000
0000
0000
0000
0200
0000
0020
0000
0302
0000
0000
0000
0230
0000
0023
0000
0002
0000
3000
0000
2300
0000
0230
0000
0023
0000
0002
0030
0020
0300
0200
3333
,
0002
0000
0000
0000
2000
0003
0002
3000
2000
0000
0000
0000
0200
0000
0320
0000
0200
0000
3000
0000
2300
0000
0230
0000
0023
0000
0032
0000
0320
0000
3200
0000
,
2300
3203
2302
0230
0320
3203
2032
3020
2300
3230
2320
0203
0032
0323
0232
0023
,
0032
3320
2230
0023
0032
0323
0232
0320
3200
2330
0223
0032
0320
3203
2302
3230
,
2320
3200
2003
3032
2320
3200
2300
3230
2023
0032
0320
3230
2320
0230
0323
3032
,
0220
2300
0230
0323
0232
0320
3200
2033
0322
0230
0320
3233
2002
0320
3200
2003
,
0002
3000
2000
0003
0002
3000
2000
0030
0020
0300
0200
0030
0020
0300
0200
3000
2000
0030
0020
0300
0200
0003
0002
0030
0020
0300
0200
0003
0002
3000
2000
3333
,
0020
0000
0000
0000
0000
0000
1101
1101
1101
0000
0000
0000
0030
0000
0000
0000
;
